<?xml version="1.0" standalone="no"?>
<!DOCTYPE svg PUBLIC "-//W3C//DTD SVG 1.1//EN" "http://www.w3.org/Graphics/SVG/1.1/DTD/svg11.dtd" >
<svg xmlns="http://www.w3.org/2000/svg">
<metadata>Generated by IcoMoon</metadata>
<defs>
<font id="icomoon" horiz-adv-x="1024">
<font-face units-per-em="1024" ascent="960" descent="-64" />
<missing-glyph horiz-adv-x="1024" />
<glyph unicode="&#x20;" horiz-adv-x="512" d="" />
<glyph unicode="&#xe900;" glyph-name="icon_cwfx" d="M740.693 281.566h-436.565c-22.938 0-41.574 18.637-41.574 41.574v311.842c0 22.938 18.637 41.54 41.574 41.54h436.565c22.938 0 41.574-18.603 41.574-41.54v-311.842c0-22.938-18.637-41.574-41.574-41.574zM605.696 579.55l45.773-45.773-110.967-111.002-63.317 63.351 3.345 3.311-29.389 29.423-147.012-147.012 29.423-29.389 114.244 114.244 93.457-93.457 29.389 29.389-0.751 0.751 111.002 110.967 41.711-41.711 15.053 131.925-131.959-15.019zM449.638 738.918h41.574v20.787c0 11.469 9.318 20.787 20.787 20.787 11.503 0 20.787-9.318 20.787-20.787v-20.787h41.574v-41.574h-124.723v41.574zM761.481 260.779c11.469 0 20.787-9.284 20.787-20.787 0-11.469-9.318-20.787-20.787-20.787h-145.545l41.609-103.936h-62.396l-41.574 103.936h-83.149l-41.574-103.936h-62.362l41.574 103.936h-145.51c-11.469 0-20.787 9.318-20.787 20.787 0 11.503 9.318 20.787 20.787 20.787h498.927z" />
<glyph unicode="&#xe901;" glyph-name="icon_help" d="M856.747 775.68h-665.6c-34.133 0-61.44-27.307-61.44-61.44v-481.28c0-34.133 27.307-61.44 61.44-61.44v0h85.333c13.653 0 23.893 10.24 23.893 23.893s-10.24 23.893-23.893 23.893h-85.333c-6.827 0-13.653 6.827-13.653 13.653v481.28c0 6.827 6.827 13.653 13.653 13.653h665.6c6.827 0 13.653-6.827 13.653-13.653v-481.28c0-6.827-6.827-13.653-13.653-13.653h-389.12c-3.413 0-6.827 0-10.24-3.413-3.413 0-6.827-3.413-6.827-3.413s0 0 0 0l-143.36-143.36c-10.24-10.24-10.24-23.893 0-34.133s23.893-10.24 34.133 0l136.533 136.533h382.293c34.133 0 61.44 27.307 61.44 61.44v481.28c-3.413 34.133-30.72 61.44-64.853 61.44zM368.64 451.413h-105.813c-13.653 0-23.893 10.24-23.893 23.893s10.24 23.893 23.893 23.893h105.813c13.653 0 23.893-10.24 23.893-23.893 0-10.24-10.24-23.893-23.893-23.893zM580.267 451.413h-105.813c-13.653 0-23.893 10.24-23.893 23.893s10.24 23.893 23.893 23.893h105.813c13.653 0 23.893-10.24 23.893-23.893 0-10.24-10.24-23.893-23.893-23.893zM781.653 451.413h-105.813c-13.653 0-23.893 10.24-23.893 23.893s10.24 23.893 23.893 23.893h105.813c13.653 0 23.893-10.24 23.893-23.893 3.413-10.24-10.24-23.893-23.893-23.893z" />
<glyph unicode="&#xe902;" glyph-name="icon_hyck" d="M766.771 192.785c0 0-54.647-36.42-109.295-36.42s-72.875 54.647-145.749 54.647c-72.875 0-72.875-54.647-145.749-54.647s-109.295 36.42-109.295 36.42c0 0-36.454 18.227-36.454 54.682 0 41.062 54.647 18.193 54.647 18.193s18.227-36.42 91.102-36.42c72.875 0 72.875 54.647 145.749 54.647s72.875-54.647 145.749-54.647c72.875 0 91.068 36.42 91.068 36.42s54.682 22.528 54.682-18.193c0-36.454-36.454-54.682-36.454-54.682zM657.476 265.66c-49.664 0-69.7 44.715-127.522 52.941v161.143l200.397-50.108v-127.522c0 0-18.227-36.454-72.875-36.454zM311.33 466.057l18.227 91.102 127.522 25.498v-7.27c0 0 7.305 5.803 19.046 11.093l35.601 7.1 35.601-7.1c11.708-5.291 19.046-11.093 19.046-11.093v7.27l127.522-25.498 18.227-91.102-200.397 54.647-200.397-54.647zM566.374 657.34c0 0 0 27.341-54.647 27.341s-54.647-27.341-54.647-27.341v-49.425c-36.181-5.359-54.647-14.336-54.647-14.336v109.329c0 0 36.42 36.42 109.295 36.42s109.295-36.42 109.295-36.42v-109.329c0 0-18.466 8.977-54.647 14.336v49.425zM293.103 302.114v127.522l200.397 50.108v-161.143c-57.822-8.226-77.858-52.941-127.522-52.941-54.647 0-72.875 36.454-72.875 36.454z" />
<glyph unicode="&#xe903;" glyph-name="icon_hyjk" d="M689.493 574.293c-112.64 0-546.133 0-546.133 0l-71.68-163.84c0 0 651.947 0 802.133 0-95.573 112.64-122.88 163.84-184.32 163.84zM157.013 550.4h546.133c6.827 0 10.24-6.827 10.24-10.24 0-6.827-6.827-10.24-10.24-10.24h-559.787l13.653 20.48zM136.533 506.027h621.227c6.827 0 10.24-6.827 10.24-10.24 0-6.827-6.827-10.24-10.24-10.24h-631.467l10.24 20.48zM795.307 434.347h-692.907l10.24 23.893h679.253c6.827 0 10.24-6.827 10.24-10.24 3.413-6.827 0-13.653-6.827-13.653zM689.493 598.187h-249.173l10.24 23.893h197.973c20.48 0 23.893-6.827 40.96-23.893zM283.307 676.693h-61.44l-34.133-78.507h95.573v78.507zM993.28 389.973v-13.653c-105.813-71.68-157.013-95.573-157.013-136.533-44.373 0-675.84 0-733.867 0-85.333 0-75.093 40.96-75.093 95.573l27.307 54.613h938.667zM228.693 366.080h-58.027l-13.653-30.72h71.68v30.72zM324.267 366.080h-71.68v-30.72h71.68v30.72zM419.84 366.080h-71.68v-30.72h71.68v30.72zM512 366.080h-71.68v-30.72h71.68v30.72zM607.573 366.080h-71.68v-30.72h71.68v30.72zM805.547 301.227h-47.787c0-13.653 10.24-23.893 23.893-23.893 10.24 0 23.893 10.24 23.893 23.893z" />
<glyph unicode="&#xe904;" glyph-name="icon_jlcx" d="M762.163 255.966c9.148-9.148 11.093-24.747 1.946-33.894l-22.903-25.839c-9.148-9.182-25.975-8.431-35.123 0.717l-140.8 142.234c-0.58 0.614-0.819 1.399-1.365 2.048-31.642-21.197-69.666-33.655-110.626-33.655-109.909 0-198.963 89.088-198.963 198.997 0 109.875 89.054 198.963 198.963 198.963 109.875 0 198.963-89.088 198.963-198.963 0-40.107-12.083-77.278-32.495-108.51 0.273-0.239 0.614-0.307 0.887-0.58l141.517-141.517zM452.506 660.378c-84.514 0-153.054-68.506-153.054-153.020s68.54-153.054 153.054-153.054c84.514 0 153.020 68.54 153.020 153.054s-68.506 153.020-153.020 153.020z" />
<glyph unicode="&#xe905;" glyph-name="icon_kshck" d="M81.92 574.293c0 17.067 0 40.96 0 58.027 3.413 13.653 17.067 17.067 30.72 20.48 133.12 61.44 262.827 119.467 395.947 180.907 10.24 3.413 17.067 3.413 30.72 0 136.533-61.44 273.067-122.88 409.6-187.733 13.653-3.413 17.067-13.653 17.067-27.307s0-27.307 0-40.96c0-17.067-10.24-27.307-27.307-27.307-10.24 0-20.48 0-30.72 0 0-3.413 0-3.413 0-10.24 0-61.44 0-122.88 0-184.32 0-71.68 0-136.533 0-208.213 0-20.48-13.653-44.373-30.72-51.2s-34.133-3.413-51.2-3.413c0 116.053 0 228.693 0 337.92-197.973 0-395.947 0-597.333 0 0-116.053 0-228.693 0-337.92-13.653 0-27.307 0-34.133 0-13.653 0-27.307 10.24-34.133 17.067-10.24 13.653-13.653 27.307-13.653 40.96 0 126.293 0 256 0 385.707 0 3.413 0 3.413 0 10.24-10.24 0-17.067 0-27.307 0-20.48 10.24-34.133 13.653-37.547 27.307v0zM290.133 557.227v0c20.48 0 40.96 0 61.44 0 10.24 0 10.24 3.413 10.24 10.24 0 13.653 0 27.307 0 40.96 0 3.413-3.413 10.24-10.24 10.24-40.96 0-81.92 0-122.88 0-3.413 0-10.24-3.413-10.24-10.24 0-13.653 0-27.307 0-40.96 0-10.24 3.413-10.24 10.24-10.24 23.893 0 44.373 0 61.44 0v0zM744.107 557.227c20.48 0 40.96 0 61.44 0 10.24 0 10.24 3.413 10.24 10.24 0 13.653 0 27.307 0 40.96 0 10.24-3.413 10.24-10.24 10.24-40.96 0-81.92 0-122.88 0-10.24 0-10.24-3.413-10.24-10.24 0-13.653 0-27.307 0-34.133 0-10.24 3.413-10.24 13.653-10.24 20.48-6.827 40.96-6.827 58.027-6.827v0zM522.24 557.227c20.48 0 40.96 0 61.44 0 3.413 0 10.24 3.413 10.24 10.24 0 13.653 0 27.307 0 40.96 0 3.413-3.413 10.24-10.24 10.24-40.96 0-81.92 0-122.88 0-10.24 0-10.24-3.413-10.24-10.24 0-13.653 0-27.307 0-34.133 0-10.24 3.413-10.24 10.24-10.24 20.48-6.827 37.547-6.827 61.44-6.827v0zM256 386.56h529.067v-51.2h-529.067v51.2zM256 297.813h529.067v-51.2h-529.067v51.2zM256 212.48h529.067v-51.2h-529.067v51.2z" />
<glyph unicode="&#xe906;" glyph-name="icon_kvgl2" d="M392.533 570.88h-112.64c-6.827 0-13.653-6.827-13.653-13.653v-85.333c0-6.827 6.827-13.653 13.653-13.653h112.64c6.827 0 13.653 6.827 13.653 13.653v85.333c0 6.827-6.827 13.653-13.653 13.653v0zM559.787 290.987h-112.64c-6.827 0-13.653-6.827-13.653-13.653v-85.333c0-6.827 6.827-13.653 13.653-13.653h112.64c6.827 0 13.653 6.827 13.653 13.653v85.333c0 10.24-3.413 13.653-13.653 13.653v0zM559.787 430.933h-112.64c-6.827 0-13.653-6.827-13.653-13.653v-85.333c0-6.827 6.827-13.653 13.653-13.653h112.64c6.827 0 13.653 6.827 13.653 13.653v85.333c0 6.827-3.413 13.653-13.653 13.653v0zM392.533 430.933h-112.64c-6.827 0-13.653-6.827-13.653-13.653v-85.333c0-6.827 6.827-13.653 13.653-13.653h112.64c6.827 0 13.653 6.827 13.653 13.653v85.333c0 6.827-6.827 13.653-13.653 13.653v0zM392.533 290.987h-112.64c-6.827 0-13.653-6.827-13.653-13.653v-85.333c0-6.827 6.827-13.653 13.653-13.653h112.64c6.827 0 13.653 6.827 13.653 13.653v85.333c0 10.24-6.827 13.653-13.653 13.653v0zM559.787 570.88h-112.64c-6.827 0-13.653-6.827-13.653-13.653v-85.333c0-6.827 6.827-13.653 13.653-13.653h112.64c6.827 0 13.653 6.827 13.653 13.653v85.333c0 6.827-3.413 13.653-13.653 13.653v0zM727.040 430.933h-112.64c-6.827 0-13.653-6.827-13.653-13.653v-85.333c0-6.827 6.827-13.653 13.653-13.653h112.64c6.827 0 13.653 6.827 13.653 13.653v85.333c3.413 6.827-3.413 13.653-13.653 13.653v0zM559.787 710.827h-112.64c-6.827 0-13.653-6.827-13.653-13.653v-85.333c0-6.827 6.827-13.653 13.653-13.653h112.64c6.827 0 13.653 6.827 13.653 13.653v85.333c0 6.827-3.413 13.653-13.653 13.653v0zM727.040 290.987h-112.64c-6.827 0-13.653-6.827-13.653-13.653v-85.333c0-6.827 6.827-13.653 13.653-13.653h112.64c6.827 0 13.653 6.827 13.653 13.653v85.333c3.413 10.24-3.413 13.653-13.653 13.653v0zM750.933 799.573h-477.867c-75.093 0-136.533-61.44-136.533-136.533v-430.080c0-75.093 61.44-136.533 136.533-136.533h477.867c75.093 0 136.533 61.44 136.533 136.533v430.080c0 75.093-61.44 136.533-136.533 136.533zM832.853 246.613c0-54.613-44.373-98.987-98.987-98.987h-440.32c-54.613 0-98.987 44.373-98.987 98.987v399.36c0 54.613 44.373 98.987 98.987 98.987h440.32c54.613 0 98.987-44.373 98.987-98.987v-399.36z" />
<glyph unicode="&#xe907;" glyph-name="icon_kyck" d="M139.947 383.147c-47.787-20.48-129.707-6.827-129.707-6.827l71.68 34.133c0 0 37.547-6.827 88.747-13.653-6.827-3.413-17.067-6.827-30.72-13.653zM771.413 540.16c6.827 0 17.067 0 30.72-3.413 3.413 6.827 6.827 20.48 13.653 40.96 10.24 27.307-10.24 40.96-34.133 44.373-30.72 3.413-47.787 6.827-47.787 6.827l-37.547-47.787c37.547-13.653 61.44-30.72 75.093-40.96zM972.8 492.373v-47.787c23.893 3.413 40.96 13.653 40.96 23.893s-17.067 23.893-40.96 23.893zM942.080 444.587c0 0-34.133-61.44-218.453-61.44-3.413 0-3.413 0-6.827 0-54.613-23.893-238.933-102.4-266.24-116.053-47.787-20.48-105.813-20.48-232.107-6.827l177.493 98.987c17.067 13.653 30.72 23.893 23.893 34.133-150.187 17.067-331.093 51.2-331.093 51.2l-75.093 184.32c0 0 23.893 0 40.96 0 27.307 0 47.787-6.827 68.267-27.307 13.653-13.653 30.72-30.72 51.2-54.613 40.96-40.96 75.093-51.2 133.12-34.133 88.747 23.893 208.213 64.853 273.067 64.853 116.053 0 180.907-58.027 180.907-58.027s153.6-10.24 184.32-17.067c-3.413-13.653-3.413-58.027-3.413-58.027zM737.28 492.373c-6.827 6.827-58.027 47.787-150.187 47.787-17.067 0-44.373-3.413-71.68-13.653 27.307-47.787 61.44-68.267 119.467-68.267 44.373 3.413 81.92 13.653 102.4 34.133z" />
<glyph unicode="&#xe908;" d="M730.453 89.6h-433.493c-54.613 0-95.573 44.373-95.573 95.573v522.24c0 54.613 44.373 95.573 95.573 95.573h433.493c54.613 0 95.573-44.373 95.573-95.573v-522.24c0-51.2-44.373-95.573-95.573-95.573z" />
<glyph unicode="&#xe909;" d="M348.16 632.32h334.507v-40.96h-334.507v40.96z" />
<glyph unicode="&#xe90a;" d="M348.16 287.573h334.507v-40.96h-334.507v40.96z" />
<glyph unicode="&#xe90b;" d="M348.16 468.48h334.507v-40.96h-334.507v40.96z" />
<glyph unicode="&#xe90c;" glyph-name="icon_oa" d="M773.7 186.402h-523.605c-36.147 0-65.434 29.321-65.434 65.468v392.67c0 36.147 29.286 65.468 65.434 65.468h523.605c36.147 0 65.468-29.321 65.468-65.468v-392.67c0-36.147-29.321-65.468-65.468-65.468zM490.086 557.295c0 12.049-9.762 21.811-21.811 21.811h-218.18c-12.049 0-21.811-9.762-21.811-21.811v-218.18c0-12.049 9.762-21.811 21.811-21.811h218.18c12.049 0 21.811 9.762 21.811 21.811v218.18zM773.7 557.295h-196.335c-12.049 0-21.845-9.762-21.845-21.811s9.796-21.811 21.845-21.811h196.335c12.049 0 21.811 9.762 21.811 21.811s-9.762 21.811-21.811 21.811zM773.7 470.016h-196.335c-12.049 0-21.845-9.762-21.845-21.811s9.796-21.811 21.845-21.811h196.335c12.049 0 21.811 9.762 21.811 21.811s-9.762 21.811-21.811 21.811zM773.7 382.771h-196.335c-12.049 0-21.845-9.796-21.845-21.845s9.796-21.811 21.845-21.811h196.335c12.049 0 21.811 9.762 21.811 21.811s-9.762 21.845-21.811 21.845z" />
<glyph unicode="&#xe90d;" glyph-name="icon_order" d="M706.799 180.19l-205.585 0.273-184.457-0.273c-13.449 0-24.337 10.889-24.337 24.303v328.909c0 6.383 0.171 145.033 0.171 160.256 0 22.016 24.61 21.879 24.61 21.879 15.974 0 148.651 0.375 155.17 0.375h234.428c13.414 0 24.303-10.889 24.303-24.303v-487.117c0-13.414-10.889-24.303-24.303-24.303zM365.466 692.087h-24.132v-488.004h24.132v488.004zM682.598 691.439h-97.212v-268.732l48.674 48.538 48.538-48.538v268.732z" />
<glyph unicode="&#xe90e;" glyph-name="icon_psys" d="M119.467 727.893c-13.653 0-30.72-6.827-40.96-17.067s-17.067-23.893-17.067-40.96c0-13.653 6.827-30.72 17.067-40.96s23.893-17.067 40.96-17.067h327.68c13.653 0 30.72 6.827 40.96 17.067s17.067 23.893 17.067 40.96c0 13.653-6.827 30.72-17.067 40.96s-23.893 17.067-40.96 17.067h-327.68zM716.8 611.84c-20.48 0-30.72-3.413-30.72-17.067 0-54.613-6.827-242.347 0-279.893h-259.413c-17.067 0 20.48-85.333 37.547-85.333h259.413c10.24 150.187 194.56 119.467 191.147 0h17.067c37.547 0 17.067 153.6-10.24 252.587-13.653 44.373-37.547 92.16-75.093 112.64-30.72 17.067-40.96 13.653-85.333 17.067-10.24 0-23.893 0-30.72 0-10.24 0-10.24 0-13.653 0v0 0zM204.8 591.36c-13.653 0-30.72-6.827-40.96-17.067s-17.067-23.893-17.067-40.96c0-13.653 6.827-30.72 17.067-40.96s23.893-17.067 40.96-17.067h385.707c13.653 0 30.72 6.827 40.96 17.067s17.067 23.893 17.067 40.96c0 13.653-6.827 30.72-17.067 40.96s-23.893 17.067-40.96 17.067h-385.707zM808.96 567.467c37.547 0 75.093-64.853 75.093-102.4h-153.6v102.4h78.507zM177.493 451.413c-13.653 0-30.72-6.827-40.96-17.067s-17.067-23.893-17.067-40.96c0-13.653 6.827-30.72 17.067-40.96s23.893-17.067 40.96-17.067h413.013c13.653 0 30.72 6.827 40.96 17.067s17.067 23.893 17.067 40.96c0 13.653-6.827 30.72-17.067 40.96s-23.893 17.067-40.96 17.067h-413.013zM204.8 314.88c-23.893 0-20.48-85.333 0-85.333h37.547c20.48 0 37.547 85.333 37.547 85.333h-75.093zM351.573 297.813c-40.96 0-75.093-34.133-75.093-75.093s34.133-75.093 75.093-75.093 75.093 34.133 75.093 75.093c0 40.96-34.133 75.093-75.093 75.093v0zM819.2 297.813c-40.96 0-75.093-34.133-75.093-75.093s34.133-75.093 75.093-75.093c40.96 0 75.093 34.133 75.093 75.093s-34.133 75.093-75.093 75.093v0zM351.573 260.267c20.48 0 37.547-17.067 37.547-37.547s-17.067-37.547-37.547-37.547-37.547 17.067-37.547 37.547 17.067 37.547 37.547 37.547v0zM819.2 260.267c20.48 0 37.547-17.067 37.547-37.547s-17.067-37.547-37.547-37.547c-20.48 0-37.547 17.067-37.547 37.547s17.067 37.547 37.547 37.547v0z" />
<glyph unicode="&#xe910;" glyph-name="icon_rkgl" d="M925.013 570.88l-389.12 273.067c-3.413 3.413-6.827 6.827-10.24 6.827-10.24 6.827-27.307 3.413-37.547-10.24l-385.707-273.067c-13.653-6.827-13.653-27.307-3.413-40.96s27.307-17.067 40.96-10.24l27.307 20.48v-450.56c0-17.067 13.653-30.72 30.72-30.72s30.72 13.653 30.72 30.72v491.52l286.72 204.8 293.547-208.213v-488.107c0-17.067 13.653-30.72 30.72-30.72s30.72 13.653 30.72 30.72v447.147l20.48-13.653c13.653-6.827 30.72-3.413 40.96 10.24 6.827 13.653 6.827 30.72-6.827 40.96v0 0zM378.88 546.987h-64.853c-23.893 0-30.72-6.827-30.72-30.72v-68.267c0-23.893 6.827-30.72 30.72-30.72h64.853c23.893 0 30.72 6.827 30.72 30.72v68.267c0 23.893-3.413 30.72-30.72 30.72v0 0zM378.88 379.733h-64.853c-23.893 0-30.72-6.827-30.72-30.72v-68.267c0-23.893 6.827-30.72 30.72-30.72h64.853c23.893 0 30.72 6.827 30.72 30.72v68.267c0 27.307-3.413 30.72-30.72 30.72v0 0zM378.88 215.893h-64.853c-23.893 0-30.72-6.827-30.72-30.72v-68.267c0-23.893 6.827-30.72 30.72-30.72h64.853c23.893 0 30.72 6.827 30.72 30.72v68.267c0 27.307-3.413 30.72-30.72 30.72v0 0zM552.96 215.893h-64.853c-23.893 0-30.72-6.827-30.72-30.72v-68.267c0-23.893 6.827-30.72 30.72-30.72h64.853c23.893 0 30.72 6.827 30.72 30.72v68.267c0 27.307-3.413 30.72-30.72 30.72v0 0zM727.040 215.893h-64.853c-23.893 0-30.72-6.827-30.72-30.72v-68.267c0-23.893 6.827-30.72 30.72-30.72h64.853c23.893 0 30.72 6.827 30.72 30.72v68.267c0 27.307-3.413 30.72-30.72 30.72v0 0zM552.96 379.733h-64.853c-23.893 0-30.72-6.827-30.72-30.72v-68.267c0-23.893 6.827-30.72 30.72-30.72h64.853c23.893 0 30.72 6.827 30.72 30.72v68.267c0 27.307-3.413 30.72-30.72 30.72v0 0z" />
<glyph unicode="&#xe911;" glyph-name="icon_sale" d="M730.761 247.398l-36.42-72.875-36.454 72.875-36.42-72.875-36.454 72.875-36.42-72.875-36.454 72.875-36.42-72.875-36.454 72.875-36.42-72.875-36.42 72.875-36.454-72.875-36.42 72.875-28.843-57.651c-4.437 6.042-7.612 13.141-7.612 21.231v473.668c0 20.105 16.316 36.42 36.454 36.42h437.214c20.139 0 36.454-16.316 36.454-36.42v-473.668c0-8.090-3.174-15.189-7.612-21.231l-28.843 57.651zM464.418 434.415c-2.901 6.724-6.997 12.425-12.22 17.101-5.222 4.642-11.571 8.636-19.115 11.947s-15.906 6.622-25.156 9.933l-21.845 7.782c-3.652 1.229-7.27 2.56-10.923 4.028-3.652 1.434-6.929 3.14-9.83 5.12-2.935 1.98-5.257 4.403-6.929 7.305-1.707 2.901-2.56 6.417-2.56 10.547 0 4.779 1.092 8.636 3.277 11.639s4.983 5.359 8.397 6.997c3.379 1.673 7.202 2.765 11.469 3.277 4.233 0.512 8.431 0.785 12.561 0.785 6.793 0 12.868-0.273 18.227-0.785 5.325-0.512 10.138-1.195 14.404-2.014 4.233-0.853 8.226-1.877 12.015-3.106 3.755-1.263 7.475-2.492 11.093-3.755 6.315 11.605 10.206 23.415 11.674 35.43-9.967 2.901-19.456 5.222-28.433 6.997-8.977 1.741-18.33 2.935-28.058 3.55v31.983c-5.564 1.263-10.923 1.877-16.009 1.877-5.359 0-10.581-0.614-15.667-1.877v-32.905c-21.879-2.287-38.98-8.806-51.371-19.558-12.39-10.786-18.603-25.498-18.603-44.1 0-8.704 1.297-16.077 3.823-22.084 2.56-6.007 6.212-11.23 10.923-15.667 4.745-4.471 10.411-8.294 16.964-11.503s13.858-6.246 21.845-9.148l19.319-7.134c4.13-1.673 8.397-3.243 12.766-4.676s8.294-3.209 11.844-5.291c3.516-2.048 6.417-4.71 8.738-7.919 2.287-3.209 3.447-7.27 3.447-12.254 0-9.933-4.198-17.135-12.561-21.572-8.397-4.471-20.207-6.69-35.533-6.69-10.206 0-19.797 0.683-28.774 2.014-9.011 1.331-18.603 3.789-28.774 7.305-2.697-6.622-4.983-13.005-6.929-19.115s-3.277-12.151-4.028-18.159c6.076-2.082 11.913-3.823 17.51-5.291 5.564-1.434 11.23-2.628 16.93-3.55 5.7-0.956 11.708-1.604 18.057-2.014 6.281-0.444 13.449-0.649 21.47-0.649h2.935v-32.905c5.325-1.263 10.684-1.877 16.009-1.877 5.359 0 10.581 0.614 15.667 1.877v36.011c21.641 4.164 38.093 12.083 49.391 23.757 11.298 11.708 16.93 26.044 16.93 43.042 0 10.138-1.468 18.569-4.369 25.293zM712.533 593.545h-163.942c-10.069 0-18.227-8.158-18.227-18.227 0-10.035 8.158-18.193 18.227-18.193h163.942c10.069 0 18.227 8.158 18.227 18.193 0 10.069-8.158 18.227-18.227 18.227zM712.533 502.443h-163.942c-10.069 0-18.227-8.158-18.227-18.193 0-10.069 8.158-18.227 18.227-18.227h163.942c10.069 0 18.227 8.158 18.227 18.227 0 10.035-8.158 18.193-18.227 18.193zM712.533 411.375h-163.942c-10.069 0-18.227-8.158-18.227-18.227s8.158-18.227 18.227-18.227h163.942c10.069 0 18.227 8.158 18.227 18.227s-8.158 18.227-18.227 18.227zM712.533 320.273h-109.295c-10.069 0-18.227-8.158-18.227-18.227 0-10.035 8.158-18.193 18.227-18.193h109.295c10.069 0 18.227 8.158 18.227 18.193 0 10.069-8.158 18.227-18.227 18.227z" />
<glyph unicode="&#xe912;" glyph-name="icon_search" d="M821.316 183.774l-45.090-45.090c-8.294-8.329-21.777-8.329-30.071 0l-90.214 90.18c-8.294 8.329-8.294 21.777 0 30.071l2.458 2.458-42.428 42.394c-1.331 1.331-2.15 2.935-3.004 4.506-43.998-35.499-99.226-57.617-160.154-57.617-141.687 0-256.546 114.859-256.546 256.512 0 141.687 114.859 256.546 256.546 256.546 141.653 0 256.512-114.859 256.512-256.546 0-60.928-22.118-116.156-57.617-160.154 1.57-0.853 3.174-1.673 4.506-3.004l42.394-42.428 2.458 2.458c8.294 8.294 21.743 8.294 30.071 0l90.18-90.214c8.329-8.294 8.329-21.777 0-30.071zM452.813 664.917c-87.142 0-157.73-70.622-157.73-157.73 0-87.074 70.588-157.696 157.73-157.696 87.074 0 157.696 70.622 157.696 157.696 0 87.108-70.622 157.73-157.696 157.73z" />
<glyph unicode="&#xe913;" glyph-name="icon_sjwh" d="M730.522 115.268h-436.531c-22.972 0-41.574 18.637-41.574 41.574v582.042c0 22.972 18.603 41.574 41.574 41.574h436.531c22.938 0 41.574-18.603 41.574-41.574v-582.042c0-22.938-18.637-41.574-41.574-41.574zM460.288 177.63c0-11.469 9.284-20.787 20.787-20.787h62.362c11.469 0 20.787 9.318 20.787 20.787v62.362c0 11.503-9.318 20.787-20.787 20.787h-62.362c-11.503 0-20.787-9.284-20.787-20.787v-62.362zM460.288 323.14c0-11.469 9.284-20.787 20.787-20.787h62.362c11.469 0 20.787 9.318 20.787 20.787v62.362c0 11.503-9.318 20.787-20.787 20.787h-62.362c-11.503 0-20.787-9.284-20.787-20.787v-62.362zM460.288 468.651c0-11.469 9.284-20.787 20.787-20.787h62.362c11.469 0 20.787 9.318 20.787 20.787v62.362c0 11.503-9.318 20.787-20.787 20.787h-62.362c-11.503 0-20.787-9.284-20.787-20.787v-62.362zM314.778 177.63c0-11.469 9.284-20.787 20.787-20.787h62.362c11.469 0 20.787 9.318 20.787 20.787v62.362c0 11.503-9.318 20.787-20.787 20.787h-62.362c-11.503 0-20.787-9.284-20.787-20.787v-62.362zM314.778 323.14c0-11.469 9.284-20.787 20.787-20.787h62.362c11.469 0 20.787 9.318 20.787 20.787v62.362c0 11.503-9.318 20.787-20.787 20.787h-62.362c-11.503 0-20.787-9.284-20.787-20.787v-62.362zM314.778 468.651c0-11.469 9.284-20.787 20.787-20.787h62.362c11.469 0 20.787 9.318 20.787 20.787v62.362c0 11.503-9.318 20.787-20.787 20.787h-62.362c-11.503 0-20.787-9.284-20.787-20.787v-62.362zM709.734 718.097h-394.957v-103.936h394.957v103.936zM709.734 531.012c0 11.503-9.318 20.787-20.787 20.787h-62.362c-11.503 0-20.787-9.284-20.787-20.787v-62.362c0-11.469 9.284-20.787 20.787-20.787h62.362c11.469 0 20.787 9.318 20.787 20.787v62.362zM709.734 385.502c0 11.503-9.318 20.787-20.787 20.787h-62.362c-11.503 0-20.787-9.284-20.787-20.787v-62.362c0-11.469 9.284-20.787 20.787-20.787h62.362c11.469 0 20.787 9.318 20.787 20.787v62.362zM709.734 239.991c0 11.503-9.318 20.787-20.787 20.787h-62.362c-11.503 0-20.787-9.284-20.787-20.787v-62.362c0-11.469 9.284-20.787 20.787-20.787h62.362c11.469 0 20.787 9.318 20.787 20.787v62.362z" />
<glyph unicode="&#xe914;" glyph-name="icon_sq" d="M122.88 448c0 215.040 174.080 389.12 389.12 389.12s389.12-174.080 389.12-389.12-174.080-389.12-389.12-389.12c-215.040 0-389.12 174.080-389.12 389.12zM853.333 448c0 187.733-153.6 341.333-341.333 341.333s-341.333-153.6-341.333-341.333 153.6-341.333 341.333-341.333c187.733 0 341.333 153.6 341.333 341.333zM481.28 557.227h47.787v-266.24h-47.787v266.24zM358.4 502.613l146.773 105.813 146.773-105.813-27.307-40.96-119.467 88.747-119.467-88.747z" />
<glyph unicode="&#xe915;" glyph-name="icon_sq_current" d="M901.12 448c0-215.040-174.080-389.12-389.12-389.12s-389.12 174.080-389.12 389.12 174.080 389.12 389.12 389.12c215.040 0 389.12-174.080 389.12-389.12zM170.667 448c0-187.733 153.6-341.333 341.333-341.333s341.333 153.6 341.333 341.333-153.6 341.333-341.333 341.333c-187.733 0-341.333-153.6-341.333-341.333zM494.933 605.013h47.787v-266.24h-47.787v266.24zM665.6 393.387l-146.773-105.813-146.773 105.813 27.307 40.96 119.467-88.747 119.467 88.747z" />
<glyph unicode="&#xe916;" glyph-name="icon_web" d="M766.703 283.887h-510.123c-20.105 0-36.42 16.316-36.42 36.454v382.566c0 20.139 16.316 36.454 36.42 36.454h510.123c20.105 0 36.42-16.316 36.42-36.454v-382.566c0-20.139-16.316-36.454-36.42-36.454zM766.703 666.487c0 20.105-16.316 36.42-36.454 36.42h-437.214c-20.139 0-36.454-16.316-36.454-36.42v-255.044c0-20.139 16.316-36.454 36.454-36.454h437.214c20.139 0 36.454 16.316 36.454 36.454v255.044zM438.784 211.012v54.682h145.715v-54.682c0 0 36.454-18.193 54.682-36.42 18.193-18.227-18.227-18.227-18.227-18.227h-218.624c0 0-36.42 0-18.227 18.227 18.227 18.227 54.682 36.42 54.682 36.42z" />
<glyph unicode="&#xe917;" glyph-name="icon_xgxt" d="M771.243 170.394h-314.778c-10.24 0-18.534 8.294-18.534 18.534v111.070c0 10.24 8.294 18.534 18.534 18.534h314.778c10.206 0 18.5-8.294 18.5-18.534v-111.070c0-10.24-8.294-18.534-18.5-18.534zM771.243 374.067h-314.778c-10.24 0-18.534 8.294-18.534 18.534v111.070c0 10.24 8.294 18.534 18.534 18.534h314.778c10.206 0 18.5-8.294 18.5-18.534v-111.070c0-10.24-8.294-18.534-18.5-18.534zM771.243 577.741h-314.778c-10.24 0-18.534 8.294-18.534 18.534v111.070c0 10.24 8.294 18.534 18.534 18.534h314.778c10.206 0 18.5-8.294 18.5-18.534v-111.070c0-10.24-8.294-18.534-18.5-18.534zM363.861 170.394h-111.070c-10.24 0-18.534 8.294-18.534 18.534v111.070c0 10.24 8.294 18.534 18.534 18.534h111.070c10.24 0 18.534-8.294 18.534-18.534v-111.070c0-10.24-8.294-18.534-18.534-18.534zM363.861 374.067h-111.070c-10.24 0-18.534 8.294-18.534 18.534v111.070c0 10.24 8.294 18.534 18.534 18.534h111.070c10.24 0 18.534-8.294 18.534-18.534v-111.070c0-10.24-8.294-18.534-18.534-18.534zM363.861 577.741h-111.070c-10.24 0-18.534 8.294-18.534 18.534v111.070c0 10.24 8.294 18.534 18.534 18.534h111.070c10.24 0 18.534-8.294 18.534-18.534v-111.070c0-10.24-8.294-18.534-18.534-18.534z" />
<glyph unicode="&#xe918;" glyph-name="icon_xtsz" d="M778.206 479.812c1.263-10.513 1.98-21.197 1.98-32.051s-0.717-21.538-1.98-32.051l-89.293-14.37c-4.267-16.35-10.786-31.778-19.115-45.978l53.009-73.353c-13.244-16.862-28.467-32.085-45.329-45.329l-73.318 53.009c-14.234-8.329-29.662-14.848-45.978-19.115l-14.37-89.293c-10.547-1.263-21.231-1.98-32.085-1.98s-21.538 0.717-32.051 1.98l-14.37 89.293c-16.316 4.267-31.744 10.786-45.978 19.115l-73.318-53.009c-16.862 13.244-32.085 28.467-45.363 45.329l53.009 73.353c-8.329 14.199-14.814 29.628-19.081 45.978l-89.293 14.37c-1.263 10.513-1.98 21.197-1.98 32.051s0.717 21.538 1.98 32.051l89.293 14.37c4.267 16.316 10.752 31.744 19.081 45.978l-53.009 73.318c13.278 16.862 28.501 32.085 45.363 45.363l73.318-53.009c14.234 8.329 29.662 14.814 45.978 19.081l14.37 89.293c10.513 1.263 21.197 1.98 32.051 1.98s21.538-0.717 32.085-1.98l14.37-89.293c16.316-4.267 31.744-10.752 45.978-19.081l73.318 53.009c16.862-13.278 32.085-28.501 45.329-45.363l-53.009-73.318c8.329-14.234 14.848-29.662 19.115-45.978l89.293-14.37zM511.727 570.539c-67.789 0-122.778-54.989-122.778-122.778 0-67.823 54.989-122.778 122.778-122.778 67.823 0 122.812 54.955 122.812 122.778 0 67.789-54.989 122.778-122.812 122.778zM511.727 374.306c-40.55 0-73.421 32.87-73.421 73.455 0 40.55 32.87 73.421 73.421 73.421 40.585 0 73.455-32.87 73.455-73.421 0-40.585-32.87-73.455-73.455-73.455z" />
<glyph unicode="&#xe919;" glyph-name="icon_yjgl" d="M770.423 178.313h-517.188c-23.825 0-64.649 19.319-64.649 43.11s19.285 43.11 43.076 43.11h560.299c23.825 0 43.11-19.319 43.11-43.11s-40.858-43.11-64.649-43.11zM576.478 221.423h-129.297c-11.913 0-21.572-4.813-21.572-10.786 0-5.939 9.66-10.752 21.572-10.752h129.297c11.913 0 21.538 4.813 21.538 10.752 0 5.973-9.626 10.786-21.538 10.786zM427.793 494.729l39.765-39.936 128.205 128.751c8.363 8.397 21.948 8.397 30.345 0l30.345-30.481c8.363-8.431 8.363-22.050 0-30.481l-166.878-167.629c-7.202-7.202-18.022-7.851-26.317-2.697-7.066-1.741-14.78-0.205-20.275 5.325l-75.844 76.186c-8.397 8.431-8.397 22.050 0 30.481l30.345 30.481c8.363 8.397 21.948 8.397 30.31 0zM727.313 652.425h-431.002v-344.815h-64.649v43.11h3.959c-2.389 6.758-3.959 13.961-3.959 21.538v280.166c0 35.703 28.945 64.649 64.649 64.649h431.002c35.703 0 64.649-28.945 64.649-64.649v-280.166c0-7.578-1.536-14.78-3.959-21.538h3.959v-43.11h-64.649v344.815z" />
<glyph unicode="&#xe91a;" glyph-name="icon_ztkcgl" d="M392.533 290.987h-112.64c-6.827 0-13.653-6.827-13.653-13.653v-85.333c0-6.827 6.827-13.653 13.653-13.653h112.64c6.827 0 13.653 6.827 13.653 13.653v85.333c0 10.24-6.827 13.653-13.653 13.653v0zM727.040 290.987h-112.64c-6.827 0-13.653-6.827-13.653-13.653v-85.333c0-6.827 6.827-13.653 13.653-13.653h112.64c6.827 0 13.653 6.827 13.653 13.653v85.333c3.413 10.24-3.413 13.653-13.653 13.653v0zM877.227 666.453l-136.533 136.533c-20.48 20.48-47.787 20.48-68.267 0l-136.533-136.533c-20.48-20.48-20.48-47.787 0-68.267l136.533-136.533c20.48-20.48 47.787-20.48 68.267 0l136.533 136.533c20.48 20.48 20.48 51.2 0 68.267v0 0zM706.56 495.787l-136.533 136.533 136.533 136.533 136.533-136.533-136.533-136.533zM416.427 779.093h-194.56c-27.307 0-47.787-20.48-47.787-47.787v-194.56c0-27.307 20.48-47.787 47.787-47.787h194.56c27.307 0 47.787 20.48 47.787 47.787v194.56c3.413 23.893-20.48 47.787-47.787 47.787v0 0zM416.427 389.973h-194.56c-27.307 0-47.787-20.48-47.787-47.787v-194.56c0-27.307 20.48-47.787 47.787-47.787h194.56c27.307 0 47.787 20.48 47.787 47.787v194.56c3.413 27.307-20.48 47.787-47.787 47.787v0 0zM805.547 389.973h-194.56c-27.307 0-47.787-20.48-47.787-47.787v-194.56c0-27.307 20.48-47.787 47.787-47.787h194.56c27.307 0 47.787 20.48 47.787 47.787v194.56c0 27.307-23.893 47.787-47.787 47.787v0 0z" />
<glyph unicode="&#xe91b;" glyph-name="Search_blue" d="M575.42 259.14c-58.129 0-111.002 20.446-153.668 53.487l-180.395-180.361-45.090 45.090 180.361 180.395c-33.041 42.667-53.487 95.539-53.487 153.668 0 139.366 117.18 252.314 256.512 252.314s248.081-112.947 248.081-252.314c0-139.332-112.947-252.279-252.314-252.279zM579.652 718.643c-119.433 0-202.957-83.558-202.957-202.991s83.524-202.957 202.957-202.957c119.433 0 202.991 83.524 202.991 202.957s-83.558 202.991-202.991 202.991z" />
<glyph unicode="&#xe91c;" glyph-name="tri_a-_current" d="M362.018 396.425l140.083 117.077c2.662 2.048 6.212 2.935 9.728 2.799 3.516 0.137 7.066-0.751 9.728-2.799l140.049-117.077c5.018-3.857 5.018-10.069 0-13.926s-13.141-3.857-18.159 0l-131.618 110.046-131.618-110.046c-5.018-3.857-13.175-3.857-18.193 0s-5.018 10.069 0 13.926z" />
<glyph unicode="&#xe91d;" glyph-name="tri_a" d="M661.606 499.575l-140.083-117.077c-2.662-2.048-6.212-2.935-9.728-2.799-3.516-0.137-7.066 0.751-9.728 2.799l-140.049 117.077c-5.018 3.857-5.018 10.103 0 13.926 5.018 3.857 13.141 3.857 18.159 0l131.618-110.046 131.618 110.046c5.018 3.857 13.175 3.857 18.193 0 5.018-3.823 5.018-10.069 0-13.926z" />
<glyph unicode="&#xe91e;" glyph-name="icon_about" d="M511.761 494.933c12.39 0 22.426-10.035 22.426-22.426l0.068-136.533c0-12.39-10.001-22.426-22.391-22.426-12.39 0.034-22.426 10.035-22.426 22.426l-0.068 136.533c0 12.39 10.035 22.426 22.391 22.426zM487.697 560.674c0 13.278 10.786 24.064 24.064 24.064 13.312 0 24.098-10.786 24.098-24.064l0.102-0.717c0-13.312-10.786-24.098-24.098-24.098s-24.064 10.786-24.064 24.098l-0.102 0.717zM512.102 201.66c-51.849 0-98.953 17.237-138.547 44.681-10.752 1.638-19.149 10.547-19.149 21.743l-0.205 2.082c0 12.39 10.035 22.426 22.426 22.426 6.212 0 11.844-2.56 15.906-6.656l0.137 0.137c33.451-24.61 74.377-39.595 119.091-39.595 111.616 0 202.069 90.487 202.069 202.069s-90.453 202.035-202.069 202.035c-111.582 0-202.035-90.453-202.035-202.035 0-30.788 7.407-59.665 19.729-85.777l-3.959-3.959c8.192-3.311 14.029-11.298 14.029-20.685l0.205-2.082c0-12.39-10.035-22.426-22.426-22.426-11.366 0-20.378 8.602-21.845 19.558-18.432 34.475-29.901 73.216-29.901 115.029 0 136.158 110.387 246.545 246.545 246.545s246.545-110.387 246.545-246.545c0-136.158-110.387-246.545-246.545-246.545z" />
<glyph unicode="&#xe91f;" glyph-name="icon_bzjc" d="M725.060 425.643c-51.234-51.234-127.283-61.508-189.167-32.085l-46.524-46.49c0 0-39.253 39.287-52.361 26.18-13.073-13.073 26.18-52.361 26.18-52.361l-26.18-26.18c0 0-39.287 39.287-52.361 26.18-13.107-13.073 26.18-52.361 26.18-52.361l-26.18-26.18c0 0-39.287 39.253-52.361 26.18-13.107-13.107 26.18-52.395 26.18-52.395l9.523 9.557-39.561-39.561-74.718 3.823-3.857 74.718 207.462 207.462c-29.423 61.884-19.149 137.933 32.051 189.167 65.092 65.092 170.598 65.092 235.691 0 65.058-65.092 65.058-170.598 0-235.657zM646.485 582.758c-21.675 21.675-56.866 21.675-78.541 0-21.709-21.709-21.709-56.866 0-78.575 21.675-21.675 56.866-21.675 78.541 0 21.709 21.709 21.709 56.866 0 78.575z" />
<glyph unicode="&#xe920;" glyph-name="icon_calendar" d="M764.177 390.963h-45.909v45.875h45.909v-45.875zM718.268 528.589h45.909v-45.875h-45.909v45.875zM167.697 161.553v550.571h137.66v-45.875h-91.75v-458.82h596.446v458.82h-91.785v45.875h137.66v-550.571h-688.23zM626.517 345.088h45.875v-45.909h-45.875v45.909zM626.517 436.838h45.875v-45.875h-45.875v45.875zM626.517 528.589h45.875v-45.875h-45.875v45.875zM626.517 735.061h45.875v-91.75h-45.875v91.75zM534.767 345.088h45.875v-45.909h-45.875v45.909zM534.767 436.838h45.875v-45.875h-45.875v45.875zM534.767 528.589h45.875v-45.875h-45.875v45.875zM442.982 528.589h45.909v-45.875h-45.909v45.875zM488.892 299.179h-45.909v45.909h45.909v-45.909zM442.982 436.838h45.909v-45.875h-45.909v45.875zM442.982 712.124h137.66v-45.875h-137.66v45.875zM351.232 345.088h45.875v-45.909h-45.875v45.909zM351.232 436.838h45.875v-45.875h-45.875v45.875zM351.232 735.061h45.875v-91.75h-45.875v91.75zM259.482 345.088h45.875v-45.909h-45.875v45.909zM259.482 436.838h45.875v-45.875h-45.875v45.875z" />
<glyph unicode="&#xe921;" glyph-name="icon_ckgl" d="M819.2 577.707v-143.36h61.44v98.987l20.48-13.653c13.653-6.827 30.72-3.413 40.96 10.24s6.827 34.133-3.413 40.96l-395.947 279.893c-3.413 3.413-6.827 6.827-10.24 6.827-10.24 6.827-27.307 3.413-37.547-10.24v0l-392.533-276.48c-13.653-6.827-13.653-27.307-3.413-40.96s27.307-17.067 40.96-10.24l27.307 20.48v-453.973c0-17.067 13.653-30.72 30.72-34.133 17.067 0 30.72 13.653 30.72 30.72v501.76l293.547 204.8 296.96-211.627zM549.547 546.987h-68.267c-27.307 0-30.72-6.827-30.72-30.72v-68.267c0-27.307 6.827-30.72 30.72-30.72h68.267c27.307 0 30.72 6.827 30.72 30.72v68.267c0 23.893-6.827 30.72-30.72 30.72v0zM549.547 212.48h-68.267c-27.307 0-30.72-6.827-30.72-30.72v-68.267c0-27.307 6.827-30.72 30.72-30.72h68.267c27.307 0 30.72 6.827 30.72 30.72v68.267c0 23.893-6.827 30.72-30.72 30.72v0zM549.547 379.733h-68.267c-27.307 0-30.72-6.827-30.72-30.72v-68.267c0-27.307 6.827-30.72 30.72-30.72h68.267c27.307 0 30.72 6.827 30.72 30.72v68.267c0 23.893-6.827 30.72-30.72 30.72v0zM901.12 212.48h-68.267c-27.307 0-30.72-6.827-30.72-30.72v-68.267c0-27.307 6.827-30.72 30.72-30.72h68.267c27.307 0 30.72 6.827 30.72 30.72v68.267c0 23.893-3.413 30.72-30.72 30.72v0zM723.627 212.48h-68.267c-27.307 0-30.72-6.827-30.72-30.72v-68.267c0-27.307 6.827-30.72 30.72-30.72h68.267c27.307 0 30.72 6.827 30.72 30.72v68.267c3.413 23.893-3.413 30.72-30.72 30.72v0zM723.627 379.733h-68.267c-27.307 0-30.72-6.827-30.72-30.72v-68.267c0-27.307 6.827-30.72 30.72-30.72h68.267c27.307 0 30.72 6.827 30.72 30.72v68.267c3.413 23.893-3.413 30.72-30.72 30.72v0z" />
</font>
</defs>
</svg>
