<?xml version="1.0" standalone="no"?>
<!DOCTYPE svg PUBLIC "-//W3C//DTD SVG 1.1//EN" "http://www.w3.org/Graphics/SVG/1.1/DTD/svg11.dtd" >
<svg xmlns="http://www.w3.org/2000/svg">
<metadata>Generated by IcoMoon</metadata>
<defs>
<font id="icomoon" horiz-adv-x="1024">
<font-face units-per-em="1024" ascent="960" descent="-64" />
<missing-glyph horiz-adv-x="1024" />
<glyph unicode="&#x20;" horiz-adv-x="512" d="" />
<glyph unicode="&#xe900;" glyph-name="tri_a" d="M661.606 499.575l-140.083-117.077c-2.662-2.048-6.212-2.935-9.728-2.799-3.516-0.137-7.066 0.751-9.728 2.799l-140.049 117.077c-5.018 3.857-5.018 10.103 0 13.926 5.018 3.857 13.141 3.857 18.159 0l131.618-110.046 131.618 110.046c5.018 3.857 13.175 3.857 18.193 0 5.018-3.823 5.018-10.069 0-13.926z" />
<glyph unicode="&#xe901;" glyph-name="icon_about" d="M511.761 494.933c12.39 0 22.426-10.035 22.426-22.426l0.068-136.533c0-12.39-10.001-22.426-22.391-22.426-12.39 0.034-22.426 10.035-22.426 22.426l-0.068 136.533c0 12.39 10.035 22.426 22.391 22.426zM487.697 560.674c0 13.278 10.786 24.064 24.064 24.064 13.312 0 24.098-10.786 24.098-24.064l0.102-0.717c0-13.312-10.786-24.098-24.098-24.098s-24.064 10.786-24.064 24.098l-0.102 0.717zM512.102 201.66c-51.849 0-98.953 17.237-138.547 44.681-10.752 1.638-19.149 10.547-19.149 21.743l-0.205 2.082c0 12.39 10.035 22.426 22.426 22.426 6.212 0 11.844-2.56 15.906-6.656l0.137 0.137c33.451-24.61 74.377-39.595 119.091-39.595 111.616 0 202.069 90.487 202.069 202.069s-90.453 202.035-202.069 202.035c-111.582 0-202.035-90.453-202.035-202.035 0-30.788 7.407-59.665 19.729-85.777l-3.959-3.959c8.192-3.311 14.029-11.298 14.029-20.685l0.205-2.082c0-12.39-10.035-22.426-22.426-22.426-11.366 0-20.378 8.602-21.845 19.558-18.432 34.475-29.901 73.216-29.901 115.029 0 136.158 110.387 246.545 246.545 246.545s246.545-110.387 246.545-246.545c0-136.158-110.387-246.545-246.545-246.545z" />
<glyph unicode="&#xe902;" glyph-name="icon_bzjc" d="M723.627 424.107c-51.2-51.2-126.293-61.44-187.733-30.72l-47.787-47.787c0 0-37.547 40.96-51.2 27.307s27.307-51.2 27.307-51.2l-27.307-27.307c0 0-40.96 40.96-51.2 27.307-13.653-13.653 27.307-51.2 27.307-51.2l-27.307-27.307c0 0-40.96 40.96-51.2 27.307-13.653-13.653 27.307-51.2 27.307-51.2l-30.72-30.72-75.093 3.413-3.413 75.093 208.213 208.213c-30.72 61.44-20.48 136.533 30.72 187.733 64.853 64.853 170.667 64.853 235.52 0 61.44-68.267 61.44-170.667-3.413-238.933zM645.12 581.12c-20.48 20.48-58.027 20.48-78.507 0s-20.48-58.027 0-78.507c20.48-20.48 58.027-20.48 78.507 0 23.893 23.893 23.893 58.027 0 78.507z" />
<glyph unicode="&#xe903;" glyph-name="icon_calendar" d="M764.177 390.963h-45.909v45.875h45.909v-45.875zM718.268 528.589h45.909v-45.875h-45.909v45.875zM167.697 161.553v550.571h137.66v-45.875h-91.75v-458.82h596.446v458.82h-91.785v45.875h137.66v-550.571h-688.23zM626.517 345.088h45.875v-45.909h-45.875v45.909zM626.517 436.838h45.875v-45.875h-45.875v45.875zM626.517 528.589h45.875v-45.875h-45.875v45.875zM626.517 735.061h45.875v-91.75h-45.875v91.75zM534.767 345.088h45.875v-45.909h-45.875v45.909zM534.767 436.838h45.875v-45.875h-45.875v45.875zM534.767 528.589h45.875v-45.875h-45.875v45.875zM442.982 528.589h45.909v-45.875h-45.909v45.875zM488.892 299.179h-45.909v45.909h45.909v-45.909zM442.982 436.838h45.909v-45.875h-45.909v45.875zM442.982 712.124h137.66v-45.875h-137.66v45.875zM351.232 345.088h45.875v-45.909h-45.875v45.909zM351.232 436.838h45.875v-45.875h-45.875v45.875zM351.232 735.061h45.875v-91.75h-45.875v91.75zM259.482 345.088h45.875v-45.909h-45.875v45.909zM259.482 436.838h45.875v-45.875h-45.875v45.875z" />
<glyph unicode="&#xe904;" glyph-name="icon_ckgl" d="M812.373 567.467v-143.36h61.44v98.987l20.48-13.653c13.653-6.827 30.72-3.413 40.96 10.24s6.827 34.133-3.413 40.96l-395.947 279.893c-3.413 3.413-6.827 6.827-10.24 6.827-10.24 6.827-27.307 3.413-37.547-10.24v0l-392.533-276.48c-13.653-6.827-13.653-27.307-3.413-40.96s27.307-17.067 40.96-10.24l27.307 20.48v-453.973c0-17.067 13.653-30.72 30.72-34.133 17.067 0 30.72 13.653 30.72 30.72v501.76l293.547 204.8 296.96-211.627zM542.72 540.16h-68.267c-27.307 0-30.72-6.827-30.72-30.72v-68.267c0-27.307 6.827-30.72 30.72-30.72h68.267c27.307 0 30.72 6.827 30.72 30.72v68.267c0 23.893-6.827 30.72-30.72 30.72v0zM542.72 202.24h-68.267c-27.307 0-30.72-6.827-30.72-30.72v-68.267c0-27.307 6.827-30.72 30.72-30.72h68.267c27.307 0 30.72 6.827 30.72 30.72v68.267c0 27.307-6.827 30.72-30.72 30.72v0zM542.72 369.493h-68.267c-27.307 0-30.72-6.827-30.72-30.72v-68.267c0-27.307 6.827-30.72 30.72-30.72h68.267c27.307 0 30.72 6.827 30.72 30.72v68.267c0 23.893-6.827 30.72-30.72 30.72v0zM894.293 202.24h-68.267c-27.307 0-30.72-6.827-30.72-30.72v-68.267c0-27.307 6.827-30.72 30.72-30.72h68.267c27.307 0 30.72 6.827 30.72 30.72v68.267c0 27.307-3.413 30.72-30.72 30.72v0zM716.8 202.24h-68.267c-27.307 0-30.72-6.827-30.72-30.72v-68.267c0-27.307 6.827-30.72 30.72-30.72h68.267c27.307 0 30.72 6.827 30.72 30.72v68.267c3.413 27.307-3.413 30.72-30.72 30.72v0zM716.8 369.493h-68.267c-27.307 0-30.72-6.827-30.72-30.72v-68.267c0-27.307 6.827-30.72 30.72-30.72h68.267c27.307 0 30.72 6.827 30.72 30.72v68.267c3.413 23.893-3.413 30.72-30.72 30.72v0z" />
<glyph unicode="&#xe905;" glyph-name="icon_cwfx" d="M740.693 280.747h-436.907c-23.893 0-40.96 17.067-40.96 40.96v310.613c0 23.893 17.067 40.96 40.96 40.96h436.907c23.893 0 40.96-17.067 40.96-40.96v-310.613c0-20.48-17.067-40.96-40.96-40.96zM604.16 581.12l44.373-44.373-112.64-112.64-64.853 64.853 3.413 3.413-30.72 30.72-146.773-146.773 30.72-30.72 112.64 112.64 92.16-92.16 143.36 143.36 40.96-40.96 13.653 133.12-126.293-20.48zM450.56 738.133h40.96v20.48c0 10.24 10.24 20.48 20.48 20.48s20.48-10.24 20.48-20.48v-20.48h40.96v-40.96h-126.293v40.96zM761.173 260.267c10.24 0 20.48-10.24 20.48-20.48s-10.24-20.48-20.48-20.48h-146.773l40.96-102.4h-61.44l-40.96 102.4h-81.92l-40.96-102.4h-61.44l40.96 102.4h-146.773c-10.24 0-20.48 10.24-20.48 20.48s10.24 20.48 20.48 20.48h498.347z" />
<glyph unicode="&#xe906;" glyph-name="icon_help" d="M856.747 775.68h-665.6c-34.133 0-61.44-27.307-61.44-61.44v-481.28c0-34.133 27.307-61.44 61.44-61.44v0h85.333c13.653 0 23.893 10.24 23.893 23.893s-10.24 23.893-23.893 23.893h-85.333c-6.827 0-13.653 6.827-13.653 13.653v481.28c0 6.827 6.827 13.653 13.653 13.653h665.6c6.827 0 13.653-6.827 13.653-13.653v-481.28c0-6.827-6.827-13.653-13.653-13.653h-389.12c-3.413 0-6.827 0-10.24-3.413-3.413 0-6.827-3.413-6.827-3.413v0l-143.36-143.36c-10.24-10.24-10.24-23.893 0-34.133s23.893-10.24 34.133 0l136.533 136.533h382.293c34.133 0 61.44 27.307 61.44 61.44v481.28c-3.413 34.133-30.72 61.44-64.853 61.44zM368.64 451.413h-105.813c-13.653 0-23.893 10.24-23.893 23.893s10.24 23.893 23.893 23.893h105.813c13.653 0 23.893-10.24 23.893-23.893 0-10.24-10.24-23.893-23.893-23.893zM580.267 451.413h-105.813c-13.653 0-23.893 10.24-23.893 23.893s10.24 23.893 23.893 23.893h105.813c13.653 0 23.893-10.24 23.893-23.893 0-10.24-10.24-23.893-23.893-23.893zM781.653 451.413h-105.813c-13.653 0-23.893 10.24-23.893 23.893s10.24 23.893 23.893 23.893h105.813c13.653 0 23.893-10.24 23.893-23.893 3.413-10.24-10.24-23.893-23.893-23.893z" />
<glyph unicode="&#xe907;" glyph-name="icon_hyck" d="M768 192c0 0-54.613-37.547-109.227-37.547s-71.68 54.613-146.773 54.613-71.68-54.613-146.773-54.613-109.227 37.547-109.227 37.547-37.547 17.067-37.547 54.613c0 40.96 54.613 17.067 54.613 17.067s17.067-37.547 92.16-37.547 71.68 54.613 146.773 54.613 71.68-54.613 146.773-54.613c71.68 0 92.16 37.547 92.16 37.547s54.613 23.893 54.613-17.067c-3.413-34.133-37.547-54.613-37.547-54.613zM658.773 267.093c-51.2 0-68.267 44.373-126.293 54.613v160.427l201.387-51.2v-126.293c-3.413-3.413-20.48-37.547-75.093-37.547zM310.613 465.067l17.067 92.16 126.293 23.893v-6.827c0 0 6.827 6.827 20.48 10.24l34.133 6.827 34.133-6.827c10.24-6.827 20.48-10.24 20.48-10.24v6.827l126.293-23.893 17.067-92.16-201.387 54.613-194.56-54.613zM566.613 656.213c0 0 0 27.307-54.613 27.307s-54.613-27.307-54.613-27.307v-47.787c-37.547-6.827-54.613-13.653-54.613-13.653v109.227c0 0 37.547 37.547 109.227 37.547s109.227-37.547 109.227-37.547v-109.227c0 0-17.067 10.24-54.613 13.653v47.787zM293.547 301.227v126.293l201.387 51.2v-160.427c-58.027-6.827-78.507-54.613-126.293-54.613-58.027 3.413-75.093 37.547-75.093 37.547z" />
<glyph unicode="&#xe908;" glyph-name="icon_hyjk" d="M692.907 564.053c-112.64 0-546.133 0-546.133 0l-71.68-163.84c0 0 651.947 0 802.133 0-95.573 112.64-122.88 163.84-184.32 163.84zM160.427 540.16h546.133c6.827 0 10.24-6.827 10.24-10.24 0-6.827-6.827-10.24-10.24-10.24h-559.787l13.653 20.48zM139.947 495.787h621.227c6.827 0 10.24-6.827 10.24-10.24 0-6.827-6.827-10.24-10.24-10.24h-631.467l10.24 20.48zM798.72 424.107h-692.907l10.24 23.893h679.253c6.827 0 10.24-6.827 10.24-10.24 3.413-6.827 0-13.653-6.827-13.653zM692.907 587.947h-249.173l10.24 23.893h197.973c20.48 0 23.893-6.827 40.96-23.893zM286.72 666.453h-61.44l-34.133-78.507h95.573v78.507zM996.693 379.733v-13.653c-105.813-71.68-157.013-95.573-157.013-136.533-44.373 0-675.84 0-733.867 0-85.333 0-75.093 40.96-75.093 95.573l27.307 54.613h938.667zM232.107 355.84h-58.027l-13.653-30.72h71.68v30.72zM327.68 355.84h-71.68v-30.72h71.68v30.72zM423.253 355.84h-71.68v-30.72h71.68v30.72zM515.413 355.84h-71.68v-30.72h71.68v30.72zM610.987 355.84h-71.68v-30.72h71.68v30.72zM808.96 290.987h-47.787c0-13.653 10.24-23.893 23.893-23.893 10.24 0 23.893 10.24 23.893 23.893z" />
<glyph unicode="&#xe909;" glyph-name="icon_jlcx" d="M761.173 256.853c10.24-10.24 10.24-23.893 3.413-34.133l-23.893-27.307c-10.24-10.24-27.307-6.827-34.133 0l-139.947 143.36c0 0 0 0 0 3.413-30.72-20.48-68.267-34.133-109.227-34.133-109.227 0-197.973 88.747-197.973 197.973s88.747 197.973 197.973 197.973c109.227 0 197.973-88.747 197.973-197.973 0-40.96-13.653-78.507-34.133-109.227 0 0 0 0 0 0l139.947-139.947zM453.973 659.627c-85.333 0-153.6-68.267-153.6-153.6s68.267-153.6 153.6-153.6c85.333 0 153.6 68.267 153.6 153.6s-71.68 153.6-153.6 153.6z" />
<glyph unicode="&#xe90a;" glyph-name="icon_kshck" d="M68.267 570.88c0 17.067 0 40.96 0 58.027 3.413 13.653 17.067 17.067 30.72 20.48 133.12 61.44 262.827 119.467 395.947 180.907 10.24 3.413 17.067 3.413 30.72 0 136.533-61.44 273.067-122.88 409.6-187.733 13.653-3.413 17.067-13.653 17.067-27.307s0-27.307 0-40.96c0-17.067-10.24-27.307-27.307-27.307-10.24 0-20.48 0-30.72 0 0-3.413 0-3.413 0-10.24 0-61.44 0-122.88 0-184.32 0-71.68 0-136.533 0-208.213 0-20.48-13.653-44.373-30.72-51.2s-34.133-3.413-51.2-3.413c0 116.053 0 228.693 0 337.92-197.973 0-395.947 0-597.333 0 0-116.053 0-228.693 0-337.92-13.653 0-27.307 0-34.133 0-13.653 0-27.307 10.24-34.133 17.067-10.24 13.653-13.653 27.307-13.653 40.96 0 126.293 0 256 0 385.707 0 3.413 0 3.413 0 10.24-10.24 0-17.067 0-27.307 0-20.48 10.24-34.133 13.653-37.547 27.307v0zM276.48 553.813v0c20.48 0 40.96 0 61.44 0 10.24 0 10.24 3.413 10.24 10.24 0 13.653 0 27.307 0 40.96 0 3.413-3.413 10.24-10.24 10.24-40.96 0-81.92 0-122.88 0-3.413 0-10.24-3.413-10.24-10.24 0-13.653 0-27.307 0-40.96 0-10.24 3.413-10.24 10.24-10.24 23.893 0 44.373 0 61.44 0v0zM730.453 553.813c20.48 0 40.96 0 61.44 0 10.24 0 10.24 3.413 10.24 10.24 0 13.653 0 27.307 0 40.96 0 10.24-3.413 10.24-10.24 10.24-40.96 0-81.92 0-122.88 0-10.24 0-10.24-3.413-10.24-10.24 0-13.653 0-27.307 0-34.133 0-10.24 3.413-10.24 13.653-10.24 20.48-6.827 40.96-6.827 58.027-6.827v0zM508.587 553.813c20.48 0 40.96 0 61.44 0 3.413 0 10.24 3.413 10.24 10.24 0 13.653 0 27.307 0 40.96 0 3.413-3.413 10.24-10.24 10.24-40.96 0-81.92 0-122.88 0-10.24 0-10.24-3.413-10.24-10.24 0-13.653 0-27.307 0-34.133 0-10.24 3.413-10.24 10.24-10.24 20.48-6.827 37.547-6.827 61.44-6.827v0zM242.347 383.147h529.067v-51.2h-529.067v51.2zM242.347 294.4h529.067v-51.2h-529.067v51.2zM242.347 209.067h529.067v-51.2h-529.067v51.2z" />
<glyph unicode="&#xe90b;" glyph-name="icon_kvgl2" d="M416.427 567.467h-112.64c-6.827 0-13.653-6.827-13.653-13.653v-85.333c0-6.827 6.827-13.653 13.653-13.653h112.64c6.827 0 13.653 6.827 13.653 13.653v85.333c0 6.827-6.827 13.653-13.653 13.653v0zM583.68 287.573h-112.64c-6.827 0-13.653-6.827-13.653-13.653v-85.333c0-6.827 6.827-13.653 13.653-13.653h112.64c6.827 0 13.653 6.827 13.653 13.653v85.333c0 10.24-3.413 13.653-13.653 13.653v0zM583.68 427.52h-112.64c-6.827 0-13.653-6.827-13.653-13.653v-85.333c0-6.827 6.827-13.653 13.653-13.653h112.64c6.827 0 13.653 6.827 13.653 13.653v85.333c0 6.827-3.413 13.653-13.653 13.653v0zM416.427 427.52h-112.64c-6.827 0-13.653-6.827-13.653-13.653v-85.333c0-6.827 6.827-13.653 13.653-13.653h112.64c6.827 0 13.653 6.827 13.653 13.653v85.333c0 6.827-6.827 13.653-13.653 13.653v0zM416.427 287.573h-112.64c-6.827 0-13.653-6.827-13.653-13.653v-85.333c0-6.827 6.827-13.653 13.653-13.653h112.64c6.827 0 13.653 6.827 13.653 13.653v85.333c0 10.24-6.827 13.653-13.653 13.653v0zM583.68 567.467h-112.64c-6.827 0-13.653-6.827-13.653-13.653v-85.333c0-6.827 6.827-13.653 13.653-13.653h112.64c6.827 0 13.653 6.827 13.653 13.653v85.333c0 6.827-3.413 13.653-13.653 13.653v0zM750.933 427.52h-112.64c-6.827 0-13.653-6.827-13.653-13.653v-85.333c0-6.827 6.827-13.653 13.653-13.653h112.64c6.827 0 13.653 6.827 13.653 13.653v85.333c3.413 6.827-3.413 13.653-13.653 13.653v0zM583.68 710.827h-112.64c-6.827 0-13.653-6.827-13.653-13.653v-85.333c0-6.827 6.827-13.653 13.653-13.653h112.64c6.827 0 13.653 6.827 13.653 13.653v85.333c0 3.413-3.413 13.653-13.653 13.653v0zM750.933 287.573h-112.64c-6.827 0-13.653-6.827-13.653-13.653v-85.333c0-6.827 6.827-13.653 13.653-13.653h112.64c6.827 0 13.653 6.827 13.653 13.653v85.333c3.413 10.24-3.413 13.653-13.653 13.653v0zM774.827 796.16h-477.867c-75.093 0-136.533-61.44-136.533-136.533v-430.080c0-75.093 61.44-136.533 136.533-136.533h477.867c75.093 0 136.533 61.44 136.533 136.533v430.080c0 75.093-61.44 136.533-136.533 136.533zM856.747 243.2c0-54.613-44.373-98.987-98.987-98.987h-440.32c-54.613 0-98.987 44.373-98.987 98.987v399.36c0 54.613 44.373 98.987 98.987 98.987h440.32c54.613 0 98.987-44.373 98.987-98.987v-399.36z" />
<glyph unicode="&#xe90c;" glyph-name="icon_kyck" d="M139.947 366.080c-47.787-20.48-129.707-6.827-129.707-6.827l71.68 34.133c0 0 37.547-6.827 88.747-13.653-6.827-3.413-17.067-6.827-30.72-13.653zM771.413 523.093c6.827 0 17.067 0 30.72-3.413 3.413 6.827 6.827 20.48 13.653 40.96 10.24 27.307-10.24 40.96-34.133 44.373-30.72 3.413-47.787 6.827-47.787 6.827l-37.547-47.787c37.547-13.653 61.44-30.72 75.093-40.96zM972.8 475.307v-47.787c23.893 3.413 40.96 13.653 40.96 23.893s-17.067 23.893-40.96 23.893zM942.080 427.52c0 0-34.133-61.44-218.453-61.44-3.413 0-3.413 0-6.827 0-54.613-23.893-238.933-102.4-266.24-116.053-47.787-20.48-105.813-20.48-232.107-6.827l177.493 98.987c17.067 13.653 30.72 23.893 23.893 34.133-150.187 17.067-331.093 51.2-331.093 51.2l-75.093 184.32c0 0 23.893 0 40.96 0 27.307 0 47.787-6.827 68.267-27.307 13.653-13.653 30.72-30.72 51.2-54.613 40.96-40.96 75.093-51.2 133.12-34.133 88.747 23.893 208.213 64.853 273.067 64.853 116.053 0 180.907-58.027 180.907-58.027s153.6-10.24 184.32-17.067c-3.413-13.653-3.413-58.027-3.413-58.027zM737.28 475.307c-6.827 6.827-58.027 47.787-150.187 47.787-17.067 0-44.373-3.413-71.68-13.653 27.307-47.787 61.44-68.267 119.467-68.267 44.373 3.413 81.92 13.653 102.4 34.133z" />
<glyph unicode="&#xe90d;" d="M730.453 89.6h-433.493c-54.613 0-95.573 44.373-95.573 95.573v522.24c0 54.613 44.373 95.573 95.573 95.573h433.493c54.613 0 95.573-44.373 95.573-95.573v-522.24c0-51.2-44.373-95.573-95.573-95.573z" />
<glyph unicode="&#xe90e;" d="M348.16 632.32h334.507v-40.96h-334.507v40.96z" />
<glyph unicode="&#xe90f;" d="M348.16 287.573h334.507v-40.96h-334.507v40.96z" />
<glyph unicode="&#xe910;" d="M348.16 468.48h334.507v-40.96h-334.507v40.96z" />
<glyph unicode="&#xe911;" glyph-name="icon_oa" d="M774.827 185.173h-522.24c-37.547 0-64.853 30.72-64.853 64.853v392.533c0 37.547 30.72 64.853 64.853 64.853h522.24c37.547 0 64.853-30.72 64.853-64.853v-392.533c0-34.133-30.72-64.853-64.853-64.853zM491.52 557.227c0 13.653-10.24 20.48-20.48 20.48h-218.453c-13.653 0-20.48-10.24-20.48-20.48v-218.453c0-13.653 10.24-20.48 20.48-20.48h218.453c13.653 0 20.48 10.24 20.48 20.48v218.453zM774.827 557.227h-197.973c-13.653 0-20.48-10.24-20.48-20.48 0-13.653 10.24-20.48 20.48-20.48h197.973c13.653 0 20.48 10.24 20.48 20.48s-10.24 20.48-20.48 20.48zM774.827 468.48h-197.973c-13.653 0-20.48-10.24-20.48-20.48 0-13.653 10.24-20.48 20.48-20.48h197.973c13.653 0 20.48 10.24 20.48 20.48 0 13.653-10.24 20.48-20.48 20.48zM774.827 383.147h-197.973c-13.653 0-20.48-10.24-20.48-20.48 0-13.653 10.24-20.48 20.48-20.48h197.973c13.653 0 20.48 10.24 20.48 20.48s-10.24 20.48-20.48 20.48z" />
<glyph unicode="&#xe912;" glyph-name="icon_order" d="M706.56 181.76h-389.12c-13.653 0-23.893 10.24-23.893 23.893v327.68c0 6.827 0 143.36 0 160.427 0 20.48 23.893 20.48 23.893 20.48 17.067 0 150.187 0 153.6 0h235.52c13.653 0 23.893-10.24 23.893-23.893v-488.107c0-10.24-10.24-20.48-23.893-20.48zM365.227 693.76h-23.893v-488.107h23.893v488.107zM682.667 690.347h-95.573v-269.653l47.787 47.787 47.787-47.787v269.653z" />
<glyph unicode="&#xe913;" glyph-name="icon_psys" d="M109.227 748.373c-13.653 0-30.72-6.827-40.96-17.067s-17.067-23.893-17.067-40.96c0-13.653 6.827-30.72 17.067-40.96s23.893-17.067 40.96-17.067h327.68c13.653 0 30.72 6.827 40.96 17.067s17.067 23.893 17.067 40.96c0 13.653-6.827 30.72-17.067 40.96s-23.893 17.067-40.96 17.067h-327.68zM706.56 632.32c-20.48 0-30.72-3.413-30.72-17.067 0-54.613-6.827-242.347 0-279.893h-259.413c-17.067 0 20.48-85.333 37.547-85.333h259.413c10.24 150.187 194.56 119.467 191.147 0h17.067c37.547 0 17.067 153.6-10.24 252.587-13.653 44.373-37.547 92.16-75.093 112.64-30.72 17.067-40.96 13.653-85.333 17.067-10.24 0-23.893 0-30.72 0-10.24 0-10.24 0-13.653 0v0 0zM194.56 611.84c-13.653 0-30.72-6.827-40.96-17.067s-17.067-23.893-17.067-40.96c0-13.653 6.827-30.72 17.067-40.96s23.893-17.067 40.96-17.067h385.707c13.653 0 30.72 6.827 40.96 17.067s17.067 23.893 17.067 40.96c0 13.653-6.827 30.72-17.067 40.96s-23.893 17.067-40.96 17.067h-385.707zM798.72 587.947c37.547 0 75.093-64.853 75.093-102.4h-153.6v102.4h78.507zM167.253 471.893c-13.653 0-30.72-6.827-40.96-17.067s-17.067-23.893-17.067-40.96c0-13.653 6.827-30.72 17.067-40.96s23.893-17.067 40.96-17.067h413.013c13.653 0 30.72 6.827 40.96 17.067s17.067 23.893 17.067 40.96c0 13.653-6.827 30.72-17.067 40.96s-23.893 17.067-40.96 17.067h-413.013zM194.56 335.36c-23.893 0-20.48-85.333 0-85.333h37.547c20.48 0 37.547 85.333 37.547 85.333h-75.093zM341.333 318.293c-40.96 0-75.093-34.133-75.093-75.093s34.133-75.093 75.093-75.093 75.093 34.133 75.093 75.093c0 40.96-34.133 75.093-75.093 75.093v0zM808.96 318.293c-40.96 0-75.093-34.133-75.093-75.093s34.133-75.093 75.093-75.093 75.093 34.133 75.093 75.093c0 40.96-34.133 75.093-75.093 75.093v0zM341.333 280.747c20.48 0 37.547-17.067 37.547-37.547s-17.067-37.547-37.547-37.547-37.547 17.067-37.547 37.547 17.067 37.547 37.547 37.547v0zM808.96 280.747c20.48 0 37.547-17.067 37.547-37.547s-17.067-37.547-37.547-37.547-37.547 17.067-37.547 37.547 17.067 37.547 37.547 37.547v0z" />
<glyph unicode="&#xe915;" glyph-name="icon_rkgl" d="M921.6 564.053l-389.12 273.067c-3.413 3.413-6.827 6.827-10.24 6.827-10.24 6.827-27.307 3.413-37.547-10.24l-385.707-273.067c-13.653-6.827-13.653-27.307-3.413-40.96s27.307-17.067 40.96-10.24l27.307 20.48v-450.56c0-17.067 13.653-30.72 30.72-30.72s30.72 13.653 30.72 30.72v491.52l286.72 204.8 293.547-208.213v-488.107c0-17.067 13.653-30.72 30.72-30.72s30.72 13.653 30.72 30.72v447.147l20.48-13.653c13.653-6.827 30.72-3.413 40.96 10.24 6.827 13.653 6.827 30.72-6.827 40.96v0 0zM375.467 540.16h-64.853c-23.893 0-30.72-6.827-30.72-30.72v-68.267c0-23.893 6.827-30.72 30.72-30.72h64.853c23.893 0 30.72 6.827 30.72 30.72v68.267c0 23.893-3.413 30.72-30.72 30.72v0 0zM375.467 372.907h-64.853c-23.893 0-30.72-6.827-30.72-30.72v-68.267c0-23.893 6.827-30.72 30.72-30.72h64.853c23.893 0 30.72 6.827 30.72 30.72v68.267c0 27.307-3.413 30.72-30.72 30.72v0 0zM375.467 209.067h-64.853c-23.893 0-30.72-6.827-30.72-30.72v-68.267c0-23.893 6.827-30.72 30.72-30.72h64.853c23.893 0 30.72 6.827 30.72 30.72v68.267c0 27.307-3.413 30.72-30.72 30.72v0 0zM549.547 209.067h-64.853c-23.893 0-30.72-6.827-30.72-30.72v-68.267c0-23.893 6.827-30.72 30.72-30.72h64.853c23.893 0 30.72 6.827 30.72 30.72v68.267c0 27.307-3.413 30.72-30.72 30.72v0 0zM723.627 209.067h-64.853c-23.893 0-30.72-6.827-30.72-30.72v-68.267c0-23.893 6.827-30.72 30.72-30.72h64.853c23.893 0 30.72 6.827 30.72 30.72v68.267c0 27.307-3.413 30.72-30.72 30.72v0 0zM549.547 372.907h-64.853c-23.893 0-30.72-6.827-30.72-30.72v-68.267c0-23.893 6.827-30.72 30.72-30.72h64.853c23.893 0 30.72 6.827 30.72 30.72v68.267c0 27.307-3.413 30.72-30.72 30.72v0 0z" />
<glyph unicode="&#xe916;" glyph-name="icon_sale" d="M771.413 205.653l-40.96-78.507-40.96 78.507-40.96-78.507-40.96 78.507-40.96-78.507-40.96 78.507-40.96-78.507-40.96 78.507-40.96-78.507-40.96 78.507-40.96-78.507-40.96 78.507-30.72-61.44c-3.413 6.827-6.827 13.653-6.827 23.893v515.413c0 20.48 17.067 40.96 40.96 40.96h474.453c20.48 0 40.96-17.067 40.96-40.96v-515.413c0-10.24-3.413-17.067-6.827-23.893l-20.48 61.44zM481.28 410.453c-3.413 6.827-6.827 13.653-13.653 17.067s-13.653 10.24-20.48 13.653c-6.827 3.413-17.067 6.827-27.307 10.24l-23.893 6.827c-3.413 0-6.827 3.413-10.24 3.413s-6.827 3.413-10.24 6.827c-3.413 3.413-6.827 3.413-6.827 6.827-3.413 3.413-3.413 6.827-3.413 10.24 0 6.827 0 10.24 3.413 13.653s6.827 6.827 10.24 6.827c3.413 3.413 6.827 3.413 13.653 3.413 3.413 0 10.24 0 13.653 0 6.827 0 13.653 0 20.48 0s10.24 0 17.067-3.413c3.413 0 10.24-3.413 13.653-3.413s6.827-3.413 13.653-3.413c6.827 13.653 10.24 23.893 13.653 37.547-10.24 3.413-20.48 6.827-30.72 6.827-10.24 3.413-20.48 3.413-30.72 3.413v34.133c-6.827 0-10.24 3.413-17.067 3.413s-10.24 0-17.067-3.413v-34.133c-23.893-3.413-40.96-10.24-54.613-20.48s-20.48-27.307-20.48-47.787c0-10.24 0-17.067 3.413-23.893s6.827-13.653 10.24-17.067c6.827-3.413 10.24-10.24 17.067-13.653s13.653-6.827 23.893-10.24l20.48-6.827c3.413-3.413 10.24-3.413 13.653-3.413s10.24-3.413 13.653-6.827c3.413-3.413 6.827-6.827 10.24-10.24s3.413-6.827 3.413-13.653-3.413-17.067-13.653-23.893c-10.24-3.413-20.48-6.827-37.547-6.827-10.24 0-20.48 0-30.72 3.413-10.24 0-20.48 3.413-30.72 6.827-3.413-6.827-6.827-13.653-6.827-20.48-3.413-6.827-3.413-13.653-3.413-20.48 6.827-3.413 13.653-3.413 20.48-6.827 6.827 0 13.653-3.413 17.067-3.413 6.827 0 13.653-3.413 20.48-3.413s13.653 0 23.893 0h3.413v-34.133c6.827 0 10.24-3.413 17.067-3.413s10.24 0 17.067 3.413v37.547c23.893 3.413 40.96 13.653 54.613 27.307s17.067 27.307 17.067 47.787c-13.653 17.067-13.653 27.307-17.067 34.133zM750.933 581.12h-177.493c-10.24 0-20.48-10.24-20.48-20.48s10.24-20.48 20.48-20.48h177.493c10.24 0 20.48 10.24 20.48 20.48 0 13.653-10.24 20.48-20.48 20.48zM750.933 482.133h-177.493c-10.24 0-20.48-10.24-20.48-20.48s10.24-20.48 20.48-20.48h177.493c10.24 0 20.48 10.24 20.48 20.48 0 13.653-10.24 20.48-20.48 20.48zM750.933 383.147h-177.493c-10.24 0-20.48-10.24-20.48-20.48s10.24-20.48 20.48-20.48h177.493c10.24 0 20.48 10.24 20.48 20.48s-10.24 20.48-20.48 20.48zM750.933 284.16h-119.467c-10.24 0-20.48-10.24-20.48-20.48s10.24-20.48 20.48-20.48h119.467c10.24 0 20.48 10.24 20.48 20.48 0 13.653-10.24 20.48-20.48 20.48z" />
<glyph unicode="&#xe917;" glyph-name="icon_search" d="M821.316 183.774l-45.090-45.090c-8.294-8.329-21.777-8.329-30.071 0l-90.214 90.18c-8.294 8.329-8.294 21.777 0 30.071l2.458 2.458-42.428 42.394c-1.331 1.331-2.15 2.935-3.004 4.506-43.998-35.499-99.226-57.617-160.154-57.617-141.687 0-256.546 114.859-256.546 256.512 0 141.687 114.859 256.546 256.546 256.546 141.653 0 256.512-114.859 256.512-256.546 0-60.928-22.118-116.156-57.617-160.154 1.57-0.853 3.174-1.673 4.506-3.004l42.394-42.428 2.458 2.458c8.294 8.294 21.743 8.294 30.071 0l90.18-90.214c8.329-8.294 8.329-21.777 0-30.071zM452.813 664.917c-87.142 0-157.73-70.622-157.73-157.73 0-87.074 70.588-157.696 157.73-157.696 87.074 0 157.696 70.622 157.696 157.696 0 87.108-70.622 157.73-157.696 157.73z" />
<glyph unicode="&#xe918;" glyph-name="icon_sjwh" d="M730.453 116.907h-436.907c-23.893 0-40.96 17.067-40.96 40.96v583.68c0 23.893 17.067 40.96 40.96 40.96h436.907c23.893 0 40.96-17.067 40.96-40.96v-583.68c0-23.893-17.067-40.96-40.96-40.96zM460.8 178.347c0-10.24 10.24-20.48 20.48-20.48h61.44c10.24 0 20.48 10.24 20.48 20.48v61.44c0 10.24-10.24 20.48-20.48 20.48h-61.44c-10.24 0-20.48-10.24-20.48-20.48v-61.44zM460.8 321.707c0-10.24 10.24-20.48 20.48-20.48h61.44c10.24 0 20.48 10.24 20.48 20.48v61.44c0 10.24-10.24 20.48-20.48 20.48h-61.44c-10.24 0-20.48-10.24-20.48-20.48v-61.44zM460.8 468.48c0-10.24 10.24-20.48 20.48-20.48h61.44c10.24 0 20.48 10.24 20.48 20.48v61.44c0 10.24-10.24 20.48-20.48 20.48h-61.44c-10.24 0-20.48-10.24-20.48-20.48v-61.44zM314.027 178.347c0-10.24 10.24-20.48 20.48-20.48h61.44c10.24 0 20.48 10.24 20.48 20.48v61.44c0 10.24-10.24 20.48-20.48 20.48h-61.44c-10.24 0-20.48-10.24-20.48-20.48v-61.44zM314.027 321.707c0-10.24 10.24-20.48 20.48-20.48h61.44c10.24 0 20.48 10.24 20.48 20.48v61.44c0 10.24-10.24 20.48-20.48 20.48h-61.44c-10.24 0-20.48-10.24-20.48-20.48v-61.44zM314.027 468.48c0-10.24 10.24-20.48 20.48-20.48h61.44c10.24 0 20.48 10.24 20.48 20.48v61.44c0 10.24-10.24 20.48-20.48 20.48h-61.44c-10.24 0-20.48-10.24-20.48-20.48v-61.44zM709.973 717.653h-395.947v-102.4h395.947v102.4zM709.973 529.92c0 10.24-10.24 20.48-20.48 20.48h-61.44c-10.24 0-20.48-10.24-20.48-20.48v-61.44c0-10.24 10.24-20.48 20.48-20.48h61.44c10.24 0 20.48 10.24 20.48 20.48v61.44zM709.973 386.56c0 10.24-10.24 20.48-20.48 20.48h-61.44c-10.24 0-20.48-10.24-20.48-20.48v-61.44c0-10.24 10.24-20.48 20.48-20.48h61.44c10.24 0 20.48 10.24 20.48 20.48v61.44zM709.973 239.787c0 10.24-10.24 20.48-20.48 20.48h-61.44c-10.24 0-20.48-10.24-20.48-20.48v-61.44c0-10.24 10.24-20.48 20.48-20.48h61.44c10.24 0 20.48 10.24 20.48 20.48v61.44z" />
<glyph unicode="&#xe919;" glyph-name="icon_sq" d="M122.88 448c0 215.040 174.080 389.12 389.12 389.12s389.12-174.080 389.12-389.12-174.080-389.12-389.12-389.12c-215.040 0-389.12 174.080-389.12 389.12zM853.333 448c0 187.733-153.6 341.333-341.333 341.333s-341.333-153.6-341.333-341.333 153.6-341.333 341.333-341.333c187.733 0 341.333 153.6 341.333 341.333zM481.28 557.227h47.787v-266.24h-47.787v266.24zM358.4 502.613l146.773 105.813 146.773-105.813-27.307-40.96-119.467 88.747-119.467-88.747z" />
<glyph unicode="&#xe91a;" glyph-name="icon_sq_current" d="M901.12 448c0-215.040-174.080-389.12-389.12-389.12s-389.12 174.080-389.12 389.12 174.080 389.12 389.12 389.12c215.040 0 389.12-174.080 389.12-389.12zM170.667 448c0-187.733 153.6-341.333 341.333-341.333s341.333 153.6 341.333 341.333-153.6 341.333-341.333 341.333c-187.733 0-341.333-153.6-341.333-341.333zM494.933 605.013h47.787v-266.24h-47.787v266.24zM665.6 393.387l-146.773-105.813-146.773 105.813 27.307 40.96 119.467-88.747 119.467 88.747z" />
<glyph unicode="&#xe91b;" glyph-name="icon_web" d="M781.653 267.093h-508.587c-20.48 0-37.547 17.067-37.547 37.547v382.293c0 20.48 17.067 37.547 37.547 37.547h508.587c20.48 0 37.547-17.067 37.547-37.547v-382.293c-3.413-20.48-17.067-37.547-37.547-37.547zM781.653 649.387c0 20.48-17.067 37.547-37.547 37.547h-436.907c-20.48 0-37.547-17.067-37.547-37.547v-256c0-20.48 17.067-37.547 37.547-37.547h436.907c20.48 0 37.547 17.067 37.547 37.547v256zM453.973 195.413v54.613h146.773v-54.613c0 0 37.547-17.067 54.613-37.547 17.067-17.067-17.067-17.067-17.067-17.067h-218.453c0 0-37.547 0-17.067 17.067 13.653 17.067 51.2 37.547 51.2 37.547z" />
<glyph unicode="&#xe91c;" glyph-name="icon_xgxt" d="M795.307 171.52h-314.027c-10.24 0-17.067 6.827-17.067 17.067v112.64c0 10.24 6.827 17.067 17.067 17.067h314.027c10.24 0 17.067-6.827 17.067-17.067v-112.64c0-10.24-6.827-17.067-17.067-17.067zM795.307 372.907h-314.027c-10.24 0-17.067 6.827-17.067 17.067v112.64c0 10.24 6.827 17.067 17.067 17.067h314.027c10.24 0 17.067-6.827 17.067-17.067v-112.64c0-6.827-6.827-17.067-17.067-17.067zM795.307 577.707h-314.027c-10.24 0-17.067 6.827-17.067 17.067v112.64c0 10.24 6.827 17.067 17.067 17.067h314.027c10.24 0 17.067-6.827 17.067-17.067v-112.64c0-10.24-6.827-17.067-17.067-17.067zM385.707 171.52h-112.64c-10.24 0-17.067 6.827-17.067 17.067v112.64c0 10.24 6.827 17.067 17.067 17.067h112.64c10.24 0 17.067-6.827 17.067-17.067v-112.64c3.413-10.24-6.827-17.067-17.067-17.067zM385.707 372.907h-112.64c-10.24 0-17.067 6.827-17.067 17.067v112.64c0 10.24 6.827 17.067 17.067 17.067h112.64c10.24 0 17.067-6.827 17.067-17.067v-112.64c3.413-6.827-6.827-17.067-17.067-17.067zM385.707 577.707h-112.64c-10.24 0-17.067 6.827-17.067 17.067v112.64c0 10.24 6.827 17.067 17.067 17.067h112.64c10.24 0 17.067-6.827 17.067-17.067v-112.64c3.413-10.24-6.827-17.067-17.067-17.067z" />
<glyph unicode="&#xe91d;" glyph-name="icon_xtsz" d="M860.16 485.547c0-13.653 3.413-27.307 3.413-37.547s0-27.307-3.413-37.547l-109.227-17.067c-6.827-20.48-13.653-37.547-23.893-54.613l64.853-88.747c-17.067-20.48-34.133-37.547-54.613-54.613l-88.747 64.853c-17.067-10.24-37.547-17.067-54.613-23.893l-17.067-109.227c-13.653 0-27.307-3.413-37.547-3.413s-27.307 0-37.547 3.413l-17.067 109.227c-20.48 6.827-37.547 13.653-54.613 23.893l-88.747-64.853c-20.48 17.067-37.547 34.133-54.613 54.613l64.853 88.747c-10.24 17.067-17.067 37.547-23.893 54.613l-109.227 17.067c0 13.653-3.413 27.307-3.413 37.547s0 27.307 3.413 37.547l109.227 17.067c6.827 20.48 13.653 37.547 23.893 54.613l-64.853 88.747c17.067 20.48 34.133 37.547 54.613 54.613l88.747-64.853c17.067 10.24 37.547 17.067 54.613 23.893l17.067 109.227c13.653 0 27.307 3.413 37.547 3.413s27.307 0 37.547-3.413l17.067-109.227c20.48-6.827 37.547-13.653 54.613-23.893l88.747 64.853c20.48-17.067 37.547-34.133 54.613-54.613l-64.853-88.747c10.24-17.067 17.067-37.547 23.893-54.613l109.227-17.067zM532.48 598.187c-81.92 0-150.187-68.267-150.187-150.187s68.267-150.187 150.187-150.187c81.92 0 150.187 68.267 150.187 150.187s-68.267 150.187-150.187 150.187zM532.48 359.253c-51.2 0-88.747 40.96-88.747 88.747 0 51.2 40.96 88.747 88.747 88.747 51.2 0 88.747-40.96 88.747-88.747 0-51.2-37.547-88.747-88.747-88.747z" />
<glyph unicode="&#xe91e;" glyph-name="icon_yjgl" d="M768 178.347h-518.827c-23.893 0-64.853 20.48-64.853 44.373s20.48 44.373 44.373 44.373h559.787c23.893 0 44.373-20.48 44.373-44.373s-40.96-44.373-64.853-44.373zM573.44 222.72h-129.707c-10.24 0-20.48-3.413-20.48-10.24s10.24-10.24 20.48-10.24h129.707c10.24 0 20.48 3.413 20.48 10.24 3.413 3.413-6.827 10.24-20.48 10.24zM426.667 495.787l40.96-40.96 129.707 129.707c6.827 6.827 20.48 6.827 30.72 0l30.72-30.72c6.827-6.827 6.827-20.48 0-30.72l-167.253-167.253c-6.827-6.827-17.067-6.827-27.307-3.413-6.827-3.413-13.653 0-20.48 6.827l-75.093 75.093c-6.827 6.827-6.827 20.48 0 30.72l30.72 30.72c3.413 6.827 17.067 6.827 27.307 0zM727.040 652.8h-430.080v-344.747h-64.853v44.373h3.413c-3.413 6.827-3.413 13.653-3.413 20.48v279.893c0 34.133 27.307 64.853 64.853 64.853h430.080c34.133 0 64.853-27.307 64.853-64.853v-279.893c0-6.827 0-13.653-3.413-20.48h3.413v-44.373h-64.853v344.747z" />
<glyph unicode="&#xe91f;" glyph-name="icon_ztkcgl" d="M389.12 294.4h-112.64c-6.827 0-13.653-6.827-13.653-13.653v-85.333c0-6.827 6.827-13.653 13.653-13.653h112.64c6.827 0 13.653 6.827 13.653 13.653v85.333c0 10.24-6.827 13.653-13.653 13.653v0zM723.627 294.4h-112.64c-6.827 0-13.653-6.827-13.653-13.653v-85.333c0-6.827 6.827-13.653 13.653-13.653h112.64c6.827 0 13.653 6.827 13.653 13.653v85.333c3.413 10.24-3.413 13.653-13.653 13.653v0zM873.813 669.867l-136.533 136.533c-20.48 20.48-47.787 20.48-68.267 0l-136.533-136.533c-20.48-20.48-20.48-47.787 0-68.267l136.533-136.533c20.48-20.48 47.787-20.48 68.267 0l136.533 136.533c20.48 20.48 20.48 51.2 0 68.267v0 0zM703.147 499.2l-136.533 136.533 136.533 136.533 136.533-136.533-136.533-136.533zM413.013 782.507h-194.56c-27.307 0-47.787-20.48-47.787-47.787v-194.56c0-27.307 20.48-47.787 47.787-47.787h194.56c27.307 0 47.787 20.48 47.787 47.787v194.56c3.413 23.893-20.48 47.787-47.787 47.787v0 0zM413.013 393.387h-194.56c-27.307 0-47.787-20.48-47.787-47.787v-194.56c0-27.307 20.48-47.787 47.787-47.787h194.56c27.307 0 47.787 20.48 47.787 47.787v194.56c3.413 27.307-20.48 47.787-47.787 47.787v0 0zM802.133 393.387h-194.56c-27.307 0-47.787-20.48-47.787-47.787v-194.56c0-27.307 20.48-47.787 47.787-47.787h194.56c27.307 0 47.787 20.48 47.787 47.787v194.56c0 27.307-23.893 47.787-47.787 47.787v0 0z" />
<glyph unicode="&#xe920;" glyph-name="Search_blue" d="M575.42 259.14c-58.129 0-111.002 20.446-153.668 53.487l-180.395-180.361-45.090 45.090 180.361 180.395c-33.041 42.667-53.487 95.539-53.487 153.668 0 139.366 117.18 252.314 256.512 252.314s248.081-112.947 248.081-252.314c0-139.332-112.947-252.279-252.314-252.279zM579.652 718.643c-119.433 0-202.957-83.558-202.957-202.991s83.524-202.957 202.957-202.957c119.433 0 202.991 83.524 202.991 202.957s-83.558 202.991-202.991 202.991z" />
<glyph unicode="&#xe921;" glyph-name="tri_a-_current" d="M362.018 396.425l140.083 117.077c2.662 2.048 6.212 2.935 9.728 2.799 3.516 0.137 7.066-0.751 9.728-2.799l140.049-117.077c5.018-3.857 5.018-10.069 0-13.926s-13.141-3.857-18.159 0l-131.618 110.046-131.618-110.046c-5.018-3.857-13.175-3.857-18.193 0s-5.018 10.069 0 13.926z" />
</font>
</defs>
</svg>
